Journeys to the East - The River Dragon King



Journeys to the East - The River Dragon King
2008 | English/Chinese | DVD-Rip | WMV | 720x480 | WMV 1 500 Kbps 30.000 fps | WMA 128 Kbps | Lenght: 00:39:31 | 385.79 mb

Genre: eLearning/Children/Animated | Studio: Mandarin Advantage LLC | ASIN: B001BZ9GRG | Subtitles: No
Journeys to the East is a Chinese language learning adventure for kids 3 and up!

Learn Chinese by going on an exciting adventure through ancient China. Journeys to the East weaves Chinese vocabulary, phrases and sentences seamlessly into the adventure so children learn Chinese as they follow Jason and Jenny in their quest to help the River Dragon King.

Your children will glimpse the rich history and culture of China through the characters and settings in the adventure. In this DVD, we introduce the mystical River Dragon King and cultural icons like Terracotta Warriors.Features include:- 50 vocabulary words: greetings, numb
ers, fruits, body and face parts
- Six fun sing-along songs
- Optional subtitles with simplified Chinese characters and PinyinMediaInfoGeneral
Complete name : D:\My Documents\Journeys To The East - The River Dragon King.wmv\RiverDragonKing.wmv
Format : Windows Media
File size : 396 MiB
Duration : 39mn 31s
Overall bit rate mode : Constant
Overall bit rate : 1 401 Kbps
Maximum Overall bit rate : 1 644 Kbps
Encoded date : UTC 2009-04-18 23:09:42.815

Video
ID : 2
Format : WMV1
Codec ID : WMV1
Codec ID/Info : Windows Media Video 7
Description of the codec : Windows Media Video V7
Duration : 39mn 31s
Bit rate mode : Constant
Bit rate : 1 500 Kbps
Width : 720 pixels
Height : 480 pixels
Display aspect ratio : 3:2
Frame rate : 30.000 fps
Standard : NTSC
Bit depth : 8 bits
Bits/(Pixel*Frame) : 0.145
Stream size : 424 MiB
Language : English (US)

Audio
ID : 1
Format : WMA
Format version : Version 2
Codec ID : 161
Codec ID/Info : Windows Media Audio
Description of the codec : Windows Media Audio 9.2 - 128 kbps, 44 kHz, stereo 1-pass CBR
Duration : 39mn 31s
Bit rate mode : Constant
Bit rate : 128 Kbps
Channel(s) : 2 channels
Sampling rate : 44.1 KHz
Bit depth : 16 bits
Stream size : 36.2 MiB (9%)
Language : English (US)




http://www.fileserve.com/file/BXWBPpK | http://www.filesonic.com/file/959471241/RiverDragonKing.part1.rar | http://depositfiles.com/files/quyoeii4q | http://www.uploadstation.com/file/DEYwdmu
http://www.fileserve.com/file/2Y4Gcux | http://www.filesonic.com/file/959565114/RiverDragonKing.part2.rar | http://depositfiles.com/files/hg4939oi0 | http://www.uploadstation.com/file/m27bfKa

[Fast Download] Journeys to the East - The River Dragon King


Ebooks related to "Journeys to the East - The River Dragon King" :
ENGLISH COURSE ? Exploring English ? Level 2 ? Student's Book (1995)
Career Paths - Mechanics: Teacher's Book
Genre Pedagogy in Higher Education: The SLATE Project
ENGLISH COURSE ? Everyone Speak! ? Beginner 3 ? Workbook and Keys (2012)
Imposters: A Study of Pronominal Agreement
A Dictionary of Japanese Loanwords
AusBlick 1 Br├╝ckenkurs
Arabic in 10 minutes a day
Sounds Good 4 Podcasts
Gramatica - nivel avanzado B2 con soluciones
Copyright Disclaimer:
This site does not store any files on its server. We only index and link to content provided by other sites. Please contact the content providers to delete copyright contents if any and email us, we'll remove relevant links or contents immediately.