VMware vSphere 4 - Training Course



VMware vSphere 4 - Training Course
by Elias Khnaser for iPad iPhone HDMP4 | English | 640x480 | AVC ~342 kbps | AAC 125 kbps | 48.0 KHz | 6 hours | 2.32 GBGenre: eLearning
Become a VMware vSphere 4 expert while on the go with this great CBT by Elias Khnaser. All videos are in HD MP4 format, optimized for mobile devices like the iPad iPhone.

video and audio infoC:\Users\Administrator\Desktop\VMware vSphere 4 - Training Course\6 - Virtual Machine Operations.mp4
General
Complete name : C:\Users\Administrator\Desktop\VMware vSphere 4 - Training Course\6 - Virtual Machine Operations.mp4
Format : MPEG-4
Format profile : Base Media / Version 2
Codec ID : mp42
File size : 334 MiB
Duration : 1h 39mn
Overall bit rate : 471 Kbps
Encoded date : UTC 2011-02-20 12:37:48
Tagged date : UTC 2011-02-20 12:37:48
Video #2
ID : 2
Format : AVC
Format/Info : Advanced Video Codec
Format profile : Baseline@L3.1
Format settings, CABAC : No
Format settings, ReFrames : 1 frame
Codec ID : avc1
Codec ID/Info : Advanced Video Coding
Duration : 1h 39mn
Bit rate mode : Variable
Bit rate : 342 Kbps
Width : 640 pixels
Height : 480 pixels
Display aspect ratio : 4:3
Frame rate mode : Constant
Frame rate : 30.000 fps
Standard : NTSC
Resolution : 24 bits
Colorimetry : 4:2:0
Scan type : Progressive
Bits/(Pixel*Frame) : 0.037
Stream size : 243 MiB (73%)
Language : English
Encoded date : UTC 2011-02-20 12:37:49
Tagged date : UTC 2011-02-20 12:37:49
Audio #1
ID : 1
Format : AAC
Format/Info : Advanced Audio Codec
Format version : Version 4
Format profile : LC
Format settings, SBR : No
Codec ID : 40
Duration : 1h 39mn
Bit rate mode : Variable
Bit rate : 125 Kbps
Maximum bit rate : 272 Kbps
Channel(s) : 2 channels
Channel positions : L R
Sampling rate : 48.0 KHz
Resolution : 16 bits
Stream size : 89.0 MiB (27%)
Language : English
Encoded date : UTC 2011-02-20 12:37:49
Tagged date : UTC 2011-02-20 12:37:49

Screenshot








Download - FILESONIC.com = High speed parallel downloads!
http://www.filesonic.com/file/115012731/VMware vSphere 4 - Training Course.part01.rar

http://www.filesonic.com/file/115018591/VMware vSphere 4 - Training Course.part03.rar

http://www.filesonic.com/file/115027621/VMware vSphere 4 - Training Course.part05.rar

http://www.filesonic.com/file/115023121/VMware vSphere 4 - Training Course.part07.rar

http://www.filesonic.com/file/115029661/VMware vSphere 4 - Training Course.part09.rar

http://bitshare.com/files/aqrh288s/VMware-vSphere-4-Training-Course.part01.rar.html

http://bitshare.com/files/zs950gum/VMware-vSphere-4-Training-Course.part03.rar.html

http://bitshare.com/files/x5hctc55/VMware-vSphere-4-Training-Course.part05.rar.html

http://bitshare.com/files/zjh9h0ep/VMware-vSphere-4-Training-Course.part07.rar.html

http://bitshare.com/files/jje8blc8/VMware-vSphere-4-Training-Course.part09.rar.html
http://bitshare.com/files/pib324i8/VMware-vSphere-4-Training-Course.part10.rar.html

-, follow the rules-

[Fast Download] VMware vSphere 4 - Training Course


Ebooks related to "VMware vSphere 4 - Training Course" :
PowerShell and WMI
Troubleshooting Windows Server with PowerShell
Windows 7 and Vista Guide to Scripting, Automation, and Command Line Tools
Excel 2010: The Missing Manual
Excel Hacks
Instant SQL Server 2000 Applications by Greg Buczek
WindowsXP and Vista Speed Secrets
Introducing Windows 7 for Developers
Instant SQL Server 2000 Applications
Computer Graphics and Geometric Modelling: Implementation & Algorithms
Copyright Disclaimer:
This site does not store any files on its server. We only index and link to content provided by other sites. Please contact the content providers to delete copyright contents if any and email us, we'll remove relevant links or contents immediately.