Bob Proctor - Six Minutes to Success



Bob Proctor - Six Minutes to SuccessFlash Video | English | FLV PDF Workbooks | 450x337 | H.263 ~3416 kbps | 29 fps
MPEG Audio Layer 3 | 64 kbps | 44.1 KHz | 2 channels | 5.54 GBGenre: Training Video Course
Six Minutes to Success is a new program by Bob Proctor - a world renowned expert on human mind and potential, developed to give you an opportunity to be personally coached by him through short daily video messages (approximately 2 minutes each) Every video consists of a new idea/concept plus a daily assignment from Bob to help you apply new concept right away.

video and audio infoC:\Users\Administrator\Desktop\Bob Proctor - Six Minutes to Success\263-Universal Laws.flv
General
Complete name : C:\Users\Administrator\Desktop\Bob Proctor - Six Minutes to Success\263-Universal Laws.flv
Format : Flash Video
File size : 184 MiB
Duration : 7mn 11s
Overall bit rate : 3 573 Kbps
Tagging application : Yet Another Metadata Injector for FLV - Version 1.3
Video
Format : H.263
Duration : 7mn 11s
Bit rate : 3 416 Kbps
Width : 450 pixels
Height : 337 pixels
Display aspect ratio : 4:3
Frame rate : 29.002 fps
Bits/(Pixel*Frame) : 0.777
Stream size : 180 MiB (98%)
Audio
Format : MPEG Audio
Format version : Version 1
Format profile : Layer 3
Duration : 7mn 11s
Bit rate mode : Constant
Bit rate : 64.0 Kbps
Channel(s) : 2 channels
Sampling rate : 44.1 KHz
Resolution : 16 bits
Stream size : 3.48 MiB (2%)

Screenshot






Sample of workbooks pages





Download - FILESONIC.com = High speed parallel downloads!

http://www.filesonic.com/file/129402451/Bob Proctor - Six Minutes to Success.part01.rar

http://www.filesonic.com/file/129405991/Bob Proctor - Six Minutes to Success.part03.rar

http://www.filesonic.com/file/129410921/Bob Proctor - Six Minutes to Success.part05.rar

http://www.filesonic.com/file/129416381/Bob Proctor - Six Minutes to Success.part07.rar

http://www.filesonic.com/file/129418181/Bob Proctor - Six Minutes to Success.part09.rar

http://www.filesonic.com/file/129418851/Bob Proctor - Six Minutes to Success.part11.rar

http://www.filesonic.com/file/129421991/Bob Proctor - Six Minutes to Success.part13.rar

http://www.filesonic.com/file/129424531/Bob Proctor - Six Minutes to Success.part15.rar
http://www.filesonic.com/file/129426701/Bob Proctor - Six Minutes to Success.part16.rar

-, follow the rules-


[Fast Download] Bob Proctor - Six Minutes to Success


Ebooks related to "Bob Proctor - Six Minutes to Success" :
NYC Basic Tips and Etiquette
How May We Hate You?: Notes from the Concierge Desk
Joe R. Lansdale - Il giorno dei dinosauri
Federico Guiglia - Sulla punta della lingua. Come il Francese, il Portoghese, lo Spagnolo
The Porsche 911 RS Book Volume 4
Nathan Eklund - How Was Your Day at School?: Improving Dialogue about Teacher Job Satisfaction
Curtis Ebbesmeyer, Eric Scigliano - Flotsametrics and the Floating World
Laurie Tetley, David Calcutt - Electronic Navigation Systems
Language Is Served: Games, Writing Prompts, and Other Language Arts Activities on the Yummy Topic of
Odors In the Food Industry {Repost}
Copyright Disclaimer:
This site does not store any files on its server. We only index and link to content provided by other sites. Please contact the content providers to delete copyright contents if any and email us, we'll remove relevant links or contents immediately.