Seattle Pacific University - Medical Microbiology Video Lectures



Seattle Pacific University - Medical Microbiology Video LecturesFlash video | English | MP4 | 640 x 480 | AVC ~142 kbps | 15 fps
AAC 53.6 kbps | 44.1 KHz | 2 channels | 1.77 GBGenre: eLearning / Lectures
A full course of 21 video lectures on Medical Microbiology / Seattle Pacific University (2010)

1 - Introduction
2 - History of Microbiology: Part 1
3 - History of Microbiology: Part 2
4 - History of Microbiology: Part 3
5 - Cell Biology: Part 1
6 - Cell Biology: Part 2
7 - Growth and Nutrition
8 - Classification and Identification
9 - Microbial Genetics: Part 1
10 - Microbial Genetics: Part 2
11 - Epidemiology: Part 1
12 - Epidemiology: Part 2
13 - Epidemiology: Part 3 - Immunology
14 - Immunology
15 - Antimicrobiotics Environment
16 - Antimicrobials Body
17 - Parasitology
18 - Virology: Part 1
19 - Virology: Part 2
20 - Skin Diseases
21 - Skin to GI

video and audio infoC:\Users\Administrator\Desktop\Seattle Pacific University - Medical Microbiology Video Lectures\18-Virology_ Part 1.mp4
General
Complete name : C:\Users\Administrator\Desktop\Seattle Pacific University - Medical Microbiology Video Lectures\18-Virology_ Part 1.mp4
Format : MPEG-4
Format profile : Base Media / Version 2
Codec ID : mp42
File size : 11.0 MiB
Duration : 7mn 43s
Overall bit rate : 199 Kbps
Movie name : Virology: Part 1
Album : BIO 3351: General Microbiology
Part/Position : 1
Part/Total : 0
Performer : Wood, Derek
Screenplay by : Seattle Pacific University
Genre : iTunesĀ U
Encoded date : UTC 2010-06-07 16:23:25
Tagged date : UTC 2010-05-18 23:10:06
Cover : Yes
Comment : 2010/05/19. Lecture 12A. Associate Professor, Biology.
catg : Biology
itnu : 1
stik : 23
purl : (Binary)
egid : (Binary)
cnID : 0
rtng : 0
atID : 0
cmID : 0
plID : 0
geID : 0
sfID : 0
tvsn : 0
tves : 0
purd : 2040-02-06 07:18:55
rndu : 0
rpdu : 0
Video #1
ID : 1
Format : AVC
Format/Info : Advanced Video Codec
Format profile : Baseline@L2.2
Format settings, CABAC : No
Format settings, ReFrames : 2 frames
Codec ID : avc1
Codec ID/Info : Advanced Video Coding
Duration : 7mn 43s
Bit rate mode : Variable
Bit rate : 142 Kbps
Width : 640 pixels
Height : 480 pixels
Display aspect ratio : 4:3
Frame rate mode : Constant
Frame rate : 15.000 fps
Standard : NTSC
Resolution : 24 bits
Colorimetry : 4:2:0
Scan type : Progressive
Bits/(Pixel*Frame) : 0.031
Stream size : 7.85 MiB (71%)
Language : English
Encoded date : UTC 2010-05-18 23:10:06
Tagged date : UTC 2010-05-18 23:10:06
Audio #2
ID : 2
Format : AAC
Format/Info : Advanced Audio Codec
Format version : Version 4
Format profile : LC
Format settings, SBR : No
Codec ID : 40
Duration : 7mn 43s
Bit rate mode : Constant
Bit rate : 53.6 Kbps
Channel(s) : 2 channels
Channel positions : L R
Sampling rate : 44.1 KHz
Resolution : 16 bits
Stream size : 2.96 MiB (27%)
Language : English
Encoded date : UTC 2010-05-18 23:10:06
Tagged date : UTC 2010-05-18 23:10:06

Screenshot











Download - FILESONIC.com = High speed parallel downloads!

http://www.filesonic.com/file/189239321/Seattle Pacific University - Medical Microbiology Video Lectures.part1.rar

http://www.filesonic.com/file/189241211/Seattle Pacific University - Medical Microbiology Video Lectures.part3.rar

http://www.filesonic.com/file/189237101/Seattle Pacific University - Medical Microbiology Video Lectures.part5.rar

http://www.filesonic.com/file/189236191/Seattle Pacific University - Medical Microbiology Video Lectures.part7.rar

[Fast Download] Seattle Pacific University - Medical Microbiology Video Lectures


Ebooks related to "Seattle Pacific University - Medical Microbiology Video Lectures" :
NYC Basic Tips and Etiquette
How May We Hate You?: Notes from the Concierge Desk
Joe R. Lansdale - Il giorno dei dinosauri
Federico Guiglia - Sulla punta della lingua. Come il Francese, il Portoghese, lo Spagnolo
The Porsche 911 RS Book Volume 4
Doreen Virtue - Wie oben, so unten - Die sieben Gesetze des Lebens
Eugenio Battisti - Giotto, Biographical and Critical Study
"Around the world in eighty days" by Jules Verne
Sidney Gottlieb - Roberto Rossellini's Rome Open City
Rough Waters: Nature and Development in an East African Marine Park
Copyright Disclaimer:
This site does not store any files on its server. We only index and link to content provided by other sites. Please contact the content providers to delete copyright contents if any and email us, we'll remove relevant links or contents immediately.