Technology of machine knitting - Algemene Brei Techniek



Technology of machine knitting - Algemene Brei Techniek
1998 | Total Time: 02:00:03 | 720 x 576 | VOB MPEG-2 25.00 fps 4800 Kbps | AC3 256 Kbps | 2.21 GB
Genre: eLearning | Language: Dutch | RAR 3% Recovery
Lessons on machine knitting for all knitting machines. From the basics to complex patterns. Everything is clear and without translation.
MediaInfo-1General
Complete name : D:\_Start_In Avax\Nederland_вязание\VTS_01_1.VOB
Format : MPEG-PS
File size : 918 MiB
Duration : 46mn 36s
Overall bit rate : 2 754 Kbps

Video
ID : 224 (0xE0)
Format : MPEG Video
Format version : Version 2
Format profile : Main@Main
Format settings, BVOP : Yes
Format settings, Matrix : Default
Format settings, GOP : M=3, N=12
Duration : 46mn 36s
Bit rate mode : Variable
Bit rate : 2 443 Kbps
Nominal bit rate : 4 800 Kbps
Width : 720 pixels
Height : 576 pixels
Display aspect ratio : 4:3
Frame rate : 25.000 fps
Standard : PAL
Color space : YUV
Chroma subsampling : 4:2:0
Bit depth : 8 bits
Scan type : Interlaced
Scan order : Top Field First
Compression mode : Lossy
Bits/(Pixel*Frame) : 0.236
Stream size : 814 MiB (89%)

Audio
ID : 128 (0x80)
Format : AC-3
Format/Info : Audio Coding 3
Mode extension : CM (complete main)
Duration : 46mn 36s
Bit rate mode : Constant
Bit rate : 256 Kbps
Channel(s) : 2 channels
Channel positions : Front: L R
Sampling rate : 48.0 KHz
Bit depth : 16 bits
Compression mode : Lossy
Delay relative to video : -80ms
Stream size : 85.3 MiB (9%)

Menu
MediaInfo-2General
Complete name : D:\_Start_In Avax\Nederland_вязание\VTS_01_2.VOB
Format : MPEG-PS
File size : 918 MiB
Duration : 44mn 13s
Overall bit rate : 2 902 Kbps

Video
ID : 224 (0xE0)
Format : MPEG Video
Format version : Version 2
Format profile : Main@Main
Format settings, BVOP : Yes
Format settings, Matrix : Default
Format settings, GOP : M=3, N=12
Duration : 44mn 13s
Bit rate mode : Variable
Bit rate : 2 588 Kbps
Nominal bit rate : 4 800 Kbps
Width : 720 pixels
Height : 576 pixels
Display aspect ratio : 4:3
Frame rate : 25.000 fps
Standard : PAL
Color space : YUV
Chroma subsampling : 4:2:0
Bit depth : 8 bits
Scan type : Interlaced
Scan order : Top Field First
Compression mode : Lossy
Bits/(Pixel*Frame) : 0.250
Stream size : 819 MiB (89%)

Audio
ID : 128 (0x80)
Format : AC-3
Format/Info : Audio Coding 3
Mode extension : CM (complete main)
Duration : 44mn 13s
Bit rate mode : Constant
Bit rate : 256 Kbps
Channel(s) : 2 channels
Channel positions : Front: L R
Sampling rate : 48.0 KHz
Bit depth : 16 bits
Compression mode : Lossy
Delay relative to video : -592ms
Stream size : 81.0 MiB (9%)

Menu
MediaInfo-3General
Complete name : D:\_Start_In Avax\Nederland_вязание\VTS_01_3.VOB
Format : MPEG-PS

[Fast Download] Technology of machine knitting - Algemene Brei Techniek


Related eBooks:
Overcoming Ptolemy: The Revelation of an Asian World Region
Inside Black Mirror
Doctor Who: TARDIS Type 40 Instruction Manual
The Little Book of Rock and Roll Wisdom
Patent Law Essentials: A Concise Guide
Hungover: The Morning After and One Man's Quest for the Cure
Stalker
Ignite: Volume 1 (Midnight Fire)
Sibylle Knauss - Schule des Erz?hlens: Ein Leitfaden
Earthquakes: Plate Tectonics and Earthquake Hazards
Strange Crime (Strange Series)
Madhu Viswanathan, S. Gajendiran, R. Venkatesan - Enabling Consumer and Entrepreneurial Literacy in
Copyright Disclaimer:
This site does not store any files on its server. We only index and link to content provided by other sites. Please contact the content providers to delete copyright contents if any and email us, we'll remove relevant links or contents immediately.